Page 51 of 306 FirstFirst ... 4147484950515253545561101151 ... LastLast
Results 501 to 510 of 3054
  1. Collapse Details
    Bronze Member
    Join Date
    Apr 2010
    Posts
    2,415
    Default
    Quote Originally Posted by NURBS View Post
    MJPEG 24p link in youtube: http://www.youtube.com/watch?v=pe6kpYbFAMU

    Next moment

    VA 720p GOP Size: 26 -> 10 ( Camera show warning message: That my card is too low speed for recording 'SANDISK Ultra - Class 4 - 9Mb/s writing )
    VA 1080p GOP Size: 13 -> 10 ( Same as 720p )
    If you reduce GOP, try to up all bitrates and top limit also.
    It looks like you are hitting buffer overrun.


     

  2. Collapse Details
    Senior Member Isaac_Brody's Avatar
    Join Date
    Oct 2003
    Posts
    7,897
    Default
    That 24P in MJPEG is looking promising! If you want to send me a link to an original MJPEG file I can throw it up on vimeo so people can download native quality. Keep it up.
    __________________________
    http://www.isaacbrody.com
    @isaacbrody


     

  3. Collapse Details
    Senior Member NURBS's Avatar
    Join Date
    Apr 2009
    Location
    Vilnius
    Posts
    179
    Default
    One moment, I put this video on rapidshare.

    Link: http://rapidshare.com/files/380868733/P1000660.MOV.html
    Last edited by NURBS; 04-27-2010 at 11:37 AM.


     

  4. Collapse Details
    Senior Member NURBS's Avatar
    Join Date
    Apr 2009
    Location
    Vilnius
    Posts
    179
    Default
    And new test:

    VA 720p GOP Size: 26 -> 11 ( All right - Bits/(Pixel*Frame) : 0.333, Video Bit rate : 15.3 Mbps )
    VA 1080p GOP Size: 13 -> 11 ( All right -Bits/(Pixel*Frame) : 0.333, Video Bit rate : 17.3 Mbps )

    It's incredible news!!!! video bit rate up more 16.6 Mbps!!!


    General
    ID : 0
    Complete name : E:\PRIVATE\AVCHD\BDMV\STREAM\00020.MTS
    Format : BDAV
    Format/Info : Blu-ray Video
    File size : 135 MiB
    Duration : 1mn 1s
    Overall bit rate : 18.3 Mbps
    Maximum Overall bit rate : 21.0 Mbps

    Video
    ID : 4113 (0x1011)
    Menu ID : 1 (0x1)
    Format : AVC
    Format/Info : Advanced Video Codec
    Format profile : High@L4.0
    Format settings, CABAC : No
    Format settings, ReFrames : 2 frames
    Duration : 1mn 0s
    Bit rate mode : Variable
    Bit rate : 17.3 Mbps
    Maximum bit rate : 16.6 Mbps
    Width : 1 920 pixels
    Height : 1 080 pixels
    Display aspect ratio : 16:9
    Frame rate : 25.000 fps
    Standard : NTSC
    Resolution : 8 bits
    Colorimetry : 4:2:0
    Scan type : Interlaced
    Scan order : Top Field First
    Bits/(Pixel*Frame) : 0.333
    Stream size : 125 MiB (93%)


     

  5. Collapse Details
    Senior Member Isaac_Brody's Avatar
    Join Date
    Oct 2003
    Posts
    7,897
    Default
    I think the MJPEG is still jerky. If you scrub through frame by frame it looks like every fourth frame is jumping. Anyone else seeing that?
    __________________________
    http://www.isaacbrody.com
    @isaacbrody


     

  6. Collapse Details
    Senior Member Isaac_Brody's Avatar
    Join Date
    Oct 2003
    Posts
    7,897
    Default
    Quote Originally Posted by NURBS View Post
    And new test:

    VA 720p GOP Size: 26 -> 11 ( All right - Bits/(Pixel*Frame) : 0.333, Video Bit rate : 15.3 Mbps )
    VA 1080p GOP Size: 13 -> 11 ( All right -Bits/(Pixel*Frame) : 0.333, Video Bit rate : 17.3 Mbps )

    It's incredible news!!!! video bit rate up more 16.6 Mbps!!!
    Have you done a quick pan test to see if the mud is improved?
    __________________________
    http://www.isaacbrody.com
    @isaacbrody


     

  7. Collapse Details
    Bronze Member
    Join Date
    Apr 2010
    Posts
    2,415
    Default
    Quote Originally Posted by Isaac_Brody View Post
    I think the MJPEG is still jerky. If you scrub through frame by frame it looks like every fourth frame is jumping. Anyone else seeing that?
    I believe that I know how to fix that (but may be I am wrong here).
    But first we can get reports from NURBS about private version testing.


     

  8. Collapse Details
    Senior Member DanDOF's Avatar
    Join Date
    Nov 2008
    Location
    Ottawa, Canada and sometimes Jogja, Indonesia
    Posts
    330
    Default
    NURBS file is reading as 24p in Cinema Tools analysis pane, not 23.97p. Which one do we want?
    GH2 // 20mm f1.7 Panasonic // 50mm f1.4 Canon FD // 50mm f1.4 Nikon AF-D// Indislider Pro 24"


     

  9. Collapse Details
    Senior Member
    Join Date
    Feb 2010
    Posts
    908
    Default
    23.97 is preferred


     

  10. Collapse Details
    Senior Member NURBS's Avatar
    Join Date
    Apr 2009
    Location
    Vilnius
    Posts
    179
    Default
    If you can, please download and look this MJPEG on Cinema Tools, my NLE on this time on the modding process :-)

    Media info said that:

    Video
    ID : 1
    Format : M-JPEG
    Codec ID : jpeg
    Duration : 1mn 0s
    Bit rate mode : Variable
    Bit rate : 12.9 Mbps
    Width : 1 280 pixels
    Height : 720 pixels
    Display aspect ratio : 16:9
    Frame rate mode : Constant
    Frame rate : 24.000 fps
    Bits/(Pixel*Frame) : 0.583
    Stream size : 93.0 MiB (96%)
    Language : English
    Encoded date : UTC 2010-04-27 19:11:35
    Tagged date : UTC 2010-04-27 19:11:35


     

Page 51 of 306 FirstFirst ... 4147484950515253545561101151 ... LastLast

Posting Permissions

  • You may not post new threads
  • You may not post replies
  • You may not post attachments
  • You may not edit your posts
  •